Animacion | Download | Greg Travis

Brain on Fire 2016 1080p WEB-DL DD5 1 H264-FGT

DOWNLOAD TORRENT

Posted by Lokioddin •1839 on June 5, 2017 in Movies » Drama , verified torrent

Size: 3.09 GB , Seeds: 564 , Peers: 137 ( Updated June 19, 2017 - Refresh )

* Download via Magnet Link * To download files you need a Bittorrent Client ,

Scrape History ( seeds + peers )

Internal Files

Brain.on.Fire.2016.1080p.WEB-DL.DD5.1.H264-FGT
Brain.on.Fire.2016.1080p.WEB-DL.DD5.1.H264-FGT.mkv   3.09 GB
Brain.on.Fire.2016.1080p.WEB-DL.DD5.1.H264-FGT.nfo   3.75 KB
RARBG.txt   31 Byte

Hash Code

a7f479c4d72b2b3399b82ee5ea9cc5dcd5294f3a

Description

Brain.on.Fire.2016.1080p.WEB-DL.DD5.1.H264-FGT


SCREENSHOT

SCREENSHOT SCREENSHOT SCREENSHOT SCREENSHOT


http://imdb.com/title/tt3704700/

Video
ID : 1
Format : AVC
Format/Info : Advanced Video Codec
Format profile : [email protected]
Format settings, CABAC : Yes
Format settings, ReFrames : 5 frames
Codec ID : V_MPEG4/ISO/AVC
Duration : 1h 28mn
Bit rate : 4 491 Kbps
Width : 1 920 pixels
Height : 802 pixels
Display aspect ratio : 2.40:1
Frame rate mode : Constant
Frame rate : 23.976 fps
Color space : YUV
Chroma subsampling : 4:2:0
Bit depth : 8 bits
Scan type : Progressive
Bits/(Pixel*Frame) : 0.122
Stream size : 2.79 GiB (90%)
Title : Brain.on.Fire.2016.1080p.WEB-DL.DD5.1.H264-FGT
Language : English


Audio
ID : 2
Format : AC-3
Format/Info : Audio Coding 3
Mode extension : CM (complete main)
Format settings, Endianness : Big
Codec ID : A_AC3
Duration : 1h 28mn
Bit rate mode : Constant
Bit rate : 384 Kbps
Channel(s) : 6 channels
Channel positions : Front: L C R, Side: L R, LFE
Sampling rate : 48.0 KHz
Frame rate : 31.250 fps (1536 spf)
Compression mode : Lossy
Stream size : 244 MiB (8%)
Title : Brain.on.Fire.2016.1080p.WEB-DL.DD5.1.H264-FGT
Language : English
Default : Yes
Forced : No

Trackers

Refresh Leechers : Updated June 19, 2017

1. http://tracker.trackerfix.com:80/announce

2. udp://9.rarbg.me:2710/announce

3. udp://9.rarbg.to:2710/announce

Comments

You must log in to add a comment.

Embed Code

Sharing Widget

Related torrents

FILENAME SIZE SEEDS PEERS ADDED UPD
[i] Brain on Fire (2016) 720p Web-DL x264 AAC - Downloadhub
posted by downloadhub in Movies - Drama
718.34 MB 11 2 2 weeks 4 days
[i] Brain.on.Fire.2016.HDRip.350MB 355.52 MB 6 1 2 weeks 4 days
[i] Brain on Fire 2016 720p WEBRIP AC3 X264 MutzNutz 2.4 GB 0 5 2 weeks 3 days

Top Movies ( auto generated report )

FILENAME SIZE SEEDS PEERS ADDED UPD
[i] Kong Skull Island (2017) [1080p] [YTS AG] 1.81 GB 11623 10813 21 hours 19 hours
[i] Kong- Skull Island (2017) [720p] [YTS AG] 883.55 MB 9466 9488 21 hours 19 hours
[i] The Zookeeper's Wife (2017) [720p] [YTS AG] 929.77 MB 2635 2119 4 days 3 days
[i] King.Arthur.Legend.of.the.Sword.2017.1080p.KORSUB.HDRip.x264.AAC2.0-STUTTERSHIT[rarbg] 3.94 GB 8664 6520 1 day 1 hour
[i] Apprentice (2016) [720p] [YTS AG] 715.21 MB 1351 820 2 days 1 day
[i] Cars 3 2017 TS XViD AC3-N O K 1.4 GB 1184 1399 4 days 3 days
[i] King.Arthur.Legend.of.the.Sword.2017.KORSUB.HDRip.x264-STUTTERSHIT[rarbg] 1.03 GB 4512 2499 1 day 1 hour
[i] Apprentice (2016) [1080p] [YTS AG] 1.47 GB 1014 577 2 days 1 day
[i] Kong.Skull.Island.2017.1080p.BluRay.x264-SPARKS[EtHD].torrent 8.75 GB 942 1242 1 day 20 hours
[i] Red Dog True Blue (2016) [720p] [YTS AG] 649 MB 934 389 4 days 4 days